Reign S02 720p Complete Season HDTV x264-2HD-Siklopentan

seeders: 61
leechers: 75
updated:
Added by Siklopentan5877 in TV
Torrent verified. Downloaded 530 times.

DownloadFast Safe Anonymous
movies, software, shows...
  • View all Reign episodes
  • Episode title: Burn
  • Episode: S02E22
  • Air date: 14 May 2015
  • IMDb link: 2710394
  • TVmaze link: Reign
  • Original run: 17 October 2013 — Present
  • Summary:

    Chronicles the rise to power of Mary Queen of Scots (Kane) when she arrives in France as a 15-year-old, betrothed to Prince Francis, and with her four best friends as ladies-in-waiting. It details the secret history of survival at French Court amidst fierce foes, dark forces, and a world of sexual intrigue.

    Written by Thhaque414.93K
Available in versions: 1080p720p480pHDTVWEBRipx264x265
Reign S02 720p Complete Season HDTV x264-2HD-Siklopentan (Size: 18.87 GB)
  reign.s02e09.720p.hdtv.x264-2hd-Siklopentan.mkv 1.02 GB
  reign.s02e08.720p.hdtv.x264-2hd-Siklopentan.mkv 1021.67 MB
  reign.s02e02.720p.hdtv.x264-2hd-Siklopentan.mkv 977.51 MB
  reign.s02e03.720p.hdtv.x264-2hd-Siklopentan.mkv 970.69 MB
  reign.s02e17.720p.hdtv.x264-2hd-Siklopentan.mkv 967.2 MB
  reign.s02e20.720p.hdtv.x264-2hd-Siklopentan.mkv 940.44 MB
  reign.s02e16.720p.hdtv.x264-2hd-Siklopentan.mkv 940.18 MB
  reign.s02e12.720p.hdtv.x264-2hd-Siklopentan.mkv 920.42 MB
  reign.s02e07.720p.hdtv.x264-2hd-Siklopentan.mkv 909.94 MB
  reign.s02e11.720p.hdtv.x264-2hd-Siklopentan.mkv 895.16 MB
  reign.s02e01.720p.hdtv.x264-2hd-Siklopentan.mkv 894.9 MB
  reign.s02e14.720p.hdtv.x264-2hd-Siklopentan.mkv 884.69 MB
  reign.s02e05.720p.hdtv.x264-2hd-Siklopentan.mkv 858.09 MB
  reign.s02e21.720p.hdtv.x264-2hd-Siklopentan.mkv 840.38 MB
  reign.s02e10.720p.hdtv.x264-2hd-Siklopentan.mkv 829.39 MB
  reign.s02e06.720p.hdtv.x264-2hd-Siklopentan.mkv 808.19 MB
  reign.s02e15.720p.hdtv.x264-2hd-Siklopentan.mkv 800.56 MB
  reign.s02e04.720p.hdtv.x264-2hd-Siklopentan.mkv 777.81 MB
  reign.s02e13.720p.hdtv.x264-2hd-Siklopentan.mkv 760.84 MB
  reign.s02e18.720p.hdtv.x264-2hd-Siklopentan.mkv 760.81 MB
  reign.s02e22.720p.hdtv.x264-2hd-Siklopentan.mkv 759.24 MB
  reign.s02e19.720p.hdtv.x264-2hd-Siklopentan.mkv 754.93 MB

Description

image


imageimageimage

Format : Matroska
Format version : Version 2
File size : 895 MiB
Duration : 41mn 41s
Overall bit rate : 3 002 Kbps
Encoded date : UTC 2014-10-02 07:39:16
Writing application : mkvmerge v5.7.0 ('The Whirlwind') built on Jul 8 2012 20:08:51
Writing library : libebml v1.2.3 + libmatroska v1.3.0

Video


ID : 2
Format : AVC
Format/Info : Advanced Video Codec
Format profile : [email protected]
Format settings, CABAC : Yes
Format settings, ReFrames : 5 frames
Codec ID : V_MPEG4/ISO/AVC
Duration : 41mn 41s
Bit rate : 2 558 Kbps
Width : 1 280 pixels
Height : 720 pixels
Display aspect ratio : 16:9
Frame rate mode : Constant
Frame rate : 23.976 fps
Color space : YUV
Chroma subsampling : 4:2:0
Bit depth : 8 bits
Scan type : Progressive
Bits/(Pixel*Frame) : 0.116
Stream size : 763 MiB (85%)
Writing library : x264 core 142 r2479 dd79a61
Language : English
Default : Yes
Forced : No
Color range : Limited
Matrix coefficients : BT.709

Audio


ID : 1
Format : AC-3
Format/Info : Audio Coding 3
Mode extension : CM (complete main)
Format settings, Endianness : Big
Codec ID : A_AC3
Duration : 41mn 41s
Bit rate mode : Constant
Bit rate : 384 Kbps
Channel(s) : 6 channels
Channel positions : Front: L C R, Side: L R, LFE
Sampling rate : 48.0 KHz
Bit depth : 16 bits
Compression mode : Lossy
Stream size : 114 MiB (13%)
Default : Yes
Forced : No


Sharing Widget


Download torrent
18.87 GB
seeders:61
leechers:75
Reign S02 720p Complete Season HDTV x264-2HD-Siklopentan



To share this torrent use the code below and insert it into comments, status messages, forum posts or your signature.

Torrent: Reign S02 720p Complete Season HDTV x264-2HD-Siklopentan

Trackers

tracker name
udp://open.demonii.com:1337/announce
udp://tracker.openbittorrent.com:80/announce
udp://tracker.publicbt.com:80/announce
udp://tracker.istole.it:80/announce
udp://tracker.ccc.de:80/announce
µTorrent compatible trackers list

Locations

name
KickassTorrents
Torrent hash: F6234328F685D7BEFEDEBBA0CBE115543C60B6B4

All Comments

audio
9/10
video
9/10
please, leave only comments related to that torrent
Sign In

audio: 9video: 9
Thanks!
audio: 9video: 9
Thank you uploader and seeders!
it keeps coming up with connection error y
audio: 10video: 10
THANKS
hi! i need heLp! can anyone upLoad the compLete season 2 of reign in .mp4 or .avi?? thank you!
audio: 9video: 9
Great! Thanks loader!
That's a nice serial
Thanks for 720 and complete season
Show More All

User Opinions

Ha_Nif5645, cyber-syntoid4767, mickjapa1083975, Highslayer1676, vankob41326, Kazan.1260, sendblink231106, bratzmom7874, Amarynt261, keyhim109 ... And 214 more
FancyJedi2496, Blaxtorix288, shandie22144, AlltheLulz1
Report a bug Open chat