Quantico S01E19 HDTV x264-LOL[rartv]

seeders: 0
leechers: 4
updated:
Added by z0n3212.57M in TV
Torrent verified. Downloaded 117,518 times.

DownloadFast Safe Anonymous
movies, software, shows...
  • View all Quantico episodes
  • Episode title: Fast
  • Episode: S01E19
  • Air date: 24 April 2016
  • IMDb link: 4428122
  • TVmaze link: Quantico
  • Original run: 19 May 2015 — Present
  • Summary:

    A look at the lives of young FBI recruits training at the Quantico base in Virginia when one of them is suspected of being a sleeper terrorist.

    Written by VincibleIgncr12.01K Last edited by WyldChyld, 9 months ago
Available in versions: 1080p720p480pHDTVWEBRipx264x265
Quantico S01E19 HDTV x264-LOL[rartv] (Size: 271.07 MB)
  rarbg.com.txt 34 bytes
  quantico.119.hdtv-lol.mkv 271.07 MB
  quantico.119.hdtv-lol.nfo 4.26 KB

Description


https://rarbg.to
Quantico.S01E19.HDTV.x264-LOL[rartv]

image
Screens :

image
Mediainfo :

Video
ID : 1
Format : AVC
Format/Info : Advanced Video Codec
Format profile : [email protected]
Format settings, CABAC : Yes
Format settings, ReFrames : 5 frames
Codec ID : V_MPEG4/ISO/AVC
Duration : 42mn 42s
Bit rate : 763 Kbps
Width : 720 pixels
Height : 404 pixels
Display aspect ratio : 16:9
Frame rate mode : Constant
Frame rate : 23.976 (24000/1001) fps
Color space : YUV
Chroma subsampling : 4:2:0
Bit depth : 8 bits
Scan type : Progressive
Bits/(Pixel*Frame) : 0.109
Stream size : 233 MiB (86%)
Writing library : x264 core 148 r2665 a01e339
Encoding settings : cabac=1 / ref=5 / deblock=1:1:1 / analyse=0x3:0x133 / me=umh / subme=9 / psy=1 / psy_rd=1.00:0.00 / mixed_ref=1 / me_range=16 / chroma_me=1 / trellis=2 / 8x8dct=1 / cqm=0 / deadzone=21,11 / fast_pskip=1 / chroma_qp_offset=-2 / threads=13 / lookahead_threads=1 / sliced_threads=0 / nr=0 / decimate=1 / interlaced=0 / bluray_compat=0 / constrained_intra=0 / bframes=5 / b_pyramid=2 / b_adapt=2 / b_bias=0 / direct=3 / weightb=1 / open_gop=0 / weightp=2 / keyint=250 / keyint_min=23 / scenecut=40 / intra_refresh=0 / rc_lookahead=60 / rc=crf / mbtree=1 / crf=19.0 / qcomp=0.60 / qpmin=0 / qpmax=69 / qpstep=4 / ip_ratio=1.40 / aq=1:1.00
Default : Yes
Forced : No
Color range : Limited
Matrix coefficients : BT.709

Audio
ID : 2
Format : AAC
Format/Info : Advanced Audio Codec
Format profile : LC
Codec ID : A_AAC
Duration : 42mn 42s
Bit rate : 122 Kbps
Channel(s) : 2 channels
Channel positions : Front: L R
Sampling rate : 48.0 KHz
Frame rate : 46.875 fps (1024 spf)
Compression mode : Lossy
Delay relative to video : 9ms
Stream size : 37.3 MiB (14%)
Default : Yes
Forced : No

Menu
00:00:00.054 : en:00:00:00.054

Related Torrents

torrent name size files age seed leech

Sharing Widget


Download torrent
271.07 MB
seeders:0
leechers:4
Quantico S01E19 HDTV x264-LOL[rartv]



To share this torrent use the code below and insert it into comments, status messages, forum posts or your signature.

Torrent: Quantico S01E19 HDTV x264-LOL[rartv]

Trackers

tracker name
udp://tracker.openbittorrent.com:80/announce
udp://tracker.publicbt.com:80/announce
udp://tracker.coppersurfer.tk:6969/announce
udp://glotorrents.pw:6969/announce
http://tracker1.wasabii.com.tw:6969/announce
http://thetracker.org/announce
http://tracker.dler.org:6969/announce
http://explodie.org:6969/announce
udp://tracker.opentrackr.org:1337/announce
http://tracker.baravik.org:6970/announce
µTorrent compatible trackers list

Locations

name
KickassTorrents
Torrent hash: 3DE02F8D6C42901851D8DF7DAA7D463F14C1DFE8

All Comments

audio
9/10
video
9/10
please, leave only comments related to that torrent
Sign In

User Opinions

mtj28545038, mikey062312149, djdanilo1320, clay011254, marylou1155, boyyo1809944, simon3535626, fothadee600, Ronaldhinio0986, btfrick84 ... And 1775 more
CryonicCore537, Aamitt387, lindavida2003314, yharbi86247, badboymn225, nofish131, Tollens39
Report a bug Open chat