Parks and Recreation S02 Season 2 720p 5.1Ch Web-DL ReEnc-DeeJayAhmed

seeders: 82
leechers: 46
updated:
Added by DeeJayStark89.4K in TV
Torrent verified. Downloaded 1,345 times.

DownloadFast Safe Anonymous
movies, software, shows...
Available in versions: 1080p720p480pHDTVWEBRipx264
Parks and Recreation S02 Season 2 720p 5.1Ch Web-DL ReEnc-DeeJayAhmed (Size: 4.23 GB)
  DeeJayAhmed Facebook Page.url 70 bytes
  DeeJayAhmed ReEncodes.txt 809 bytes
  DeeJayAhmed Website.url 53 bytes
  Parks.and.Recreation.S02E01.720p.5.1Ch.Web-DL.ReEnc-DeeJayAhmed.mkv 174.13 MB
  Parks.and.Recreation.S02E01.720p.5.1Ch.Web-DL.ReEnc-DeeJayAhmed.srt 34.64 KB
  Parks.and.Recreation.S02E02.720p.5.1Ch.Web-DL.ReEnc-DeeJayAhmed.mkv 174.1 MB
  Parks.and.Recreation.S02E02.720p.5.1Ch.Web-DL.ReEnc-DeeJayAhmed.srt 33.82 KB
  Parks.and.Recreation.S02E03.720p.5.1Ch.Web-DL.ReEnc-DeeJayAhmed.mkv 174.56 MB
  Parks.and.Recreation.S02E03.720p.5.1Ch.Web-DL.ReEnc-DeeJayAhmed.srt 31.8 KB
  Parks.and.Recreation.S02E04.720p.5.1Ch.Web-DL.ReEnc-DeeJayAhmed.mkv 173.94 MB
  Parks.and.Recreation.S02E04.720p.5.1Ch.Web-DL.ReEnc-DeeJayAhmed.srt 35.98 KB
  Parks.and.Recreation.S02E05.720p.5.1Ch.Web-DL.ReEnc-DeeJayAhmed.mkv 173.67 MB
  Parks.and.Recreation.S02E05.720p.5.1Ch.Web-DL.ReEnc-DeeJayAhmed.srt 32.62 KB
  Parks.and.Recreation.S02E06.720p.5.1Ch.Web-DL.ReEnc-DeeJayAhmed.mkv 173.44 MB
  Parks.and.Recreation.S02E06.720p.5.1Ch.Web-DL.ReEnc-DeeJayAhmed.srt 33.65 KB
  Parks.and.Recreation.S02E07.720p.5.1Ch.Web-DL.ReEnc-DeeJayAhmed.mkv 174.45 MB
  Parks.and.Recreation.S02E07.720p.5.1Ch.Web-DL.ReEnc-DeeJayAhmed.srt 33.72 KB
  Parks.and.Recreation.S02E08.720p.5.1Ch.Web-DL.ReEnc-DeeJayAhmed.mkv 174.87 MB
  Parks.and.Recreation.S02E08.720p.5.1Ch.Web-DL.ReEnc-DeeJayAhmed.srt 33.91 KB
  Parks.and.Recreation.S02E09.720p.5.1Ch.Web-DL.ReEnc-DeeJayAhmed.mkv 174 MB
  Parks.and.Recreation.S02E09.720p.5.1Ch.Web-DL.ReEnc-DeeJayAhmed.srt 32.74 KB
  Parks.and.Recreation.S02E10.720p.5.1Ch.Web-DL.ReEnc-DeeJayAhmed.mkv 173.92 MB
  Parks.and.Recreation.S02E10.720p.5.1Ch.Web-DL.ReEnc-DeeJayAhmed.srt 32.83 KB
  Parks.and.Recreation.S02E11.720p.5.1Ch.Web-DL.ReEnc-DeeJayAhmed.mkv 175.65 MB
  Parks.and.Recreation.S02E11.720p.5.1Ch.Web-DL.ReEnc-DeeJayAhmed.srt 32.06 KB
  Parks.and.Recreation.S02E12.720p.5.1Ch.Web-DL.ReEnc-DeeJayAhmed.mkv 175.82 MB
  Parks.and.Recreation.S02E12.720p.5.1Ch.Web-DL.ReEnc-DeeJayAhmed.srt 34.72 KB
  Parks.and.Recreation.S02E13.Extended.720p.5.1Ch.Web-DL.ReEnc-DeeJayAhmed.mkv 221.01 MB
  Parks.and.Recreation.S02E13.Extended.720p.5.1Ch.Web-DL.ReEnc-DeeJayAhmed.srt 46.38 KB
  Parks.and.Recreation.S02E14.720p.5.1Ch.Web-DL.ReEnc-DeeJayAhmed.mkv 174.07 MB
  And 20 files more

Description


DeeJayAhmed
Keep Seeding!!=))
Do Comment On The A/V Quality Considering The Size Of The File..!


Video
ID : 1
Format : AVC
Format/Info : Advanced Video Codec
Format profile : [email protected]
Format settings, CABAC : Yes
Format settings, ReFrames : 8 frames
Codec ID : V_MPEG4/ISO/AVC
Duration : 21mn 34s
Bit rate : 948 Kbps
Width : 1 280 pixels
Height : 720 pixels
Display aspect ratio : 16:9
Frame rate mode : Constant
Frame rate : 23.976 (24000/1001) fps
Color space : YUV
Chroma subsampling : 4:2:0
Bit depth : 8 bits
Scan type : Progressive
Bits/(Pixel*Frame) : 0.043
Stream size : 146 MiB (84%)
Default : Yes
Forced : No

Audio
ID : 2
Format : AAC
Format/Info : Advanced Audio Codec
Format profile : HE-AAC / LC
Codec ID : A_AAC
Duration : 21mn 33s
Bit rate : 180 Kbps
Channel(s) : 6 channels
Channel positions : Front: L C R, Side: L R, LFE
Sampling rate : 48.0 KHz / 24.0 KHz
Frame rate : 23.438 fps (1024 spf)
Compression mode : Lossy
Delay relative to video : 31ms
Stream size : 27.7 MiB (16%)
Language : English
Default : Yes
Forced : No


Related Torrents

torrent name size files age seed leech

Sharing Widget


Download torrent
4.23 GB
seeders:80
leechers:35
Parks and Recreation S02 Season 2 720p 5.1Ch Web-DL ReEnc-DeeJayAhmed



To share this torrent use the code below and insert it into comments, status messages, forum posts or your signature.

Torrent: Parks and Recreation S02 Sea...1Ch Web-DL ReEnc-DeeJayAhmed

Trackers

tracker name
udp://tracker.openbittorrent.com:80/announce
udp://tracker.publicbt.com:80/announce
udp://tracker.coppersurfer.tk:6969/announce
udp://9.rarbg.me:2710/announce
udp://p4p.arenabg.com:1337/announce
http://tracker.trackerfix.com/announce
udp://9.rarbg.to:2710/announce
udp://tracker.opentrackr.org:1337/announce
http://tracker.dutchtracking.com/announce
µTorrent compatible trackers list

Locations

name
KickassTorrents
Torrent hash: 545B9B833D512FB3F36EFB26AE87310EB0A6C61F

All Comments

audio
9/10
video
9/10
please, leave only comments related to that torrent
Sign In

audio: 10video: 10
thank u
audio: 9video: 9
Thanks :)
audio: 9video: 9
thnx
Thanks for including subs!
audio: 10video: 9
Pretty decent quality ...
waiting for rest of the seasons ...
lol, i just checked season 2 yesterday for a good quality. It's good that i waited an aditional day to download anything. Thanks uploader!
Show More All

User Opinions

ExSavior54.02K, mayhem6148078, rik117767, sakib_shadman4920, Danz2073994, Cozmyn_Boss2646, NicK9711407, iho8521011, jer072692, AgentBob304 ... And 24 more
Report a bug Open chat