Gotham S02E22 720p HDTV X264-DIMENSION[rartv]

seeders: 222
leechers: 8
updated:
Added by z0n3212.58M in TV
Torrent verified. Downloaded 77,541 times.

DownloadFast Safe Anonymous
movies, software, shows...
  • View all Gotham episodes
  • Episode title: Wrath of the Villains: Transference
  • Episode: S02E22
  • Air date: 23 May 2016
  • IMDb link: 3749900
  • TVmaze link: Gotham
  • Original run: 22 September 2014 — Present
  • Summary:

    The story behind Commissioner James Gordon's rise to prominence in Gotham City in the years before Batman's arrival.

    Written by Hobo.hxr2971
Available in versions: 1080p720p480pHDTVWEBRipx264x265
Gotham S02E22 720p HDTV X264-DIMENSION[rartv] (Size: 783.64 MB)
  Gotham.S02E22.720p.HDTV.X264-DIMENSION.mkv 783.64 MB
  rarbg.com.txt 34 bytes
  gotham.222.720p-dimension.nfo 323 bytes

Description


https://rarbg.to
Gotham.S02E22.720p.HDTV.X264-DIMENSION[rartv]

image
Screens :

image
Mediainfo :

Video
ID : 1
Format : AVC
Format/Info : Advanced Video Codec
Format profile : [email protected]
Format settings, CABAC : Yes
Format settings, ReFrames : 8 frames
Codec ID : V_MPEG4/ISO/AVC
Duration : 43mn 49s
Bit rate : 2 002 Kbps
Width : 1 280 pixels
Height : 720 pixels
Display aspect ratio : 16:9
Frame rate mode : Constant
Frame rate : 23.976 (24000/1001) fps
Color space : YUV
Chroma subsampling : 4:2:0
Bit depth : 8 bits
Scan type : Progressive
Bits/(Pixel*Frame) : 0.091
Stream size : 628 MiB (80%)
Writing library : x264 core 148 r2665 a01e339
Encoding settings : cabac=1 / ref=8 / deblock=1:-2:-2 / analyse=0x3:0x113 / me=umh / subme=9 / psy=1 / psy_rd=1.00:0.00 / mixed_ref=1 / me_range=24 / chroma_me=1 / trellis=1 / 8x8dct=1 / cqm=0 / deadzone=21,11 / fast_pskip=0 / chroma_qp_offset=-2 / threads=18 / lookahead_threads=2 / sliced_threads=0 / nr=0 / decimate=1 / interlaced=0 / bluray_compat=0 / constrained_intra=0 / bframes=5 / b_pyramid=2 / b_adapt=2 / b_bias=0 / direct=3 / weightb=1 / open_gop=0 / weightp=2 / keyint=250 / keyint_min=23 / scenecut=40 / intra_refresh=0 / rc_lookahead=50 / rc=crf / mbtree=1 / crf=18.0 / qcomp=0.60 / qpmin=0 / qpmax=69 / qpstep=4 / ip_ratio=1.40 / aq=1:1.00
Language : English
Default : No
Forced : No

Audio
ID : 2
Format : AC-3
Format/Info : Audio Coding 3
Mode extension : CM (complete main)
Format settings, Endianness : Big
Codec ID : A_AC3
Duration : 43mn 49s
Bit rate mode : Constant
Bit rate : 448 Kbps
Channel(s) : 6 channels
Channel positions : Front: L C R, Side: L R, LFE
Sampling rate : 48.0 KHz
Frame rate : 31.250 fps (1536 spf)
Compression mode : Lossy
Delay relative to video : 100ms
Stream size : 140 MiB (18%)
Default : Yes
Forced : No

Related Torrents

torrent name size files age seed leech

Sharing Widget


Download torrent
783.64 MB
seeders:224
leechers:11
Gotham S02E22 720p HDTV X264-DIMENSION[rartv]



To share this torrent use the code below and insert it into comments, status messages, forum posts or your signature.

Torrent: Gotham S02E22 720p HDTV X264-DIMENSION[rartv]

Trackers

tracker name
udp://tracker.openbittorrent.com:80/announce
udp://tracker.coppersurfer.tk:6969/announce
udp://glotorrents.pw:6969/announce
udp://tracker.opentrackr.org:1337/announce
µTorrent compatible trackers list

Locations

name
KickassTorrents
Torrent hash: A829D8BE545EBDBE33EDA58DF203F6C05DB6CFD3

All Comments

audio
9/10
video
9/10
please, leave only comments related to that torrent
Sign In

Got copyright infringement email from ISP on this one.
audio: 9video: 9
Very solid rip i strongly recommend downloading this one :)
audio: 10video: 10
Fantasic, Thank you very much <3
audio: 10video: 9
Great quality & rip/encoding.
Thanks. smile

Last edited by XPavelX, 1 month ago

Thanks for the upload, keep up the great work.
audio: 10video: 10
Good Quality U/L, Thanks
Show More All

User Opinions

queeroid6307, rlcwallpapers3366, Emee.sb2556, lihtster1296, apostolis1591267, burakimen1066, albertoU676, ahmedalves590, andrzejw133, Yanou3501109 ... And 617 more
Report a bug Open chat